-=Жека=- (_zhecka_) wrote in world_of_tanks,
-=Жека=-
_zhecka_
world_of_tanks

видео нивидио

в общем затестил Gregion 3.1 и Fraps 3.4.2
Разрешение записи:1184х1004, 25 fps.
на выходе делал xvid, flv, h264


Различия следующие:
Fraps генерит почти raw файл довольно больших размеров, если есть фрагментация на диске, то пиши пропало. Клиента будет коматозить. FPS при грабинге падает примерно на 5-15 кадров в секунду, при свапировании и фрагментации может упасть до 1.
Видео от fraps довольно хорошо жмётся 8 гиг(9 минут 30 секунд) ужалось в 236 метров практически без потери качества (малиновка)


Gregion изначально жмёт видео при записи, немного подгружая камень. 10 минутное видео 1184х1004 самим Gregion ужалось в 453 мегабайта в его собственный формат. после грабинга необходимо прогонять конвертор для перевода в читаемый формат. После перевода и понижения битрейта звука файл стал 418 мег.


До конвертации.
C:\Fraps\Movies>ffmpeg -i "worldoftanks 2011-05-18 09-28.avi"
Input #0, avi, from 'worldoftanks 2011-05-18 09-28.avi':
  Duration: 00:10:03.16, start: 0.000000, bitrate: 6306 kb/s
    Stream #0.0: Video: GRGV / 0x56475247, 1184x1004, 25 tbr, 25 tbn, 25 tbc
    Stream #0.1: Audio: pcm_s16le, 44100 Hz, 2 channels, s16, 1411 kb/s

После конвертации
C:\Fraps\Movies>ffmpeg -i "worldoftanks 2011-05-18 09-28_1.avi"
Input #0, avi, from 'worldoftanks 2011-05-18 09-28_1.avi':
  Duration: 00:10:03.19, start: 0.000000, bitrate: 5816 kb/s
    Stream #0.0: Video: mpeg4, yuv420p, 1184x1004 [PAR 1:1 DAR 296:251], 25 tbr, 25 tbn, 25 tbc
    Stream #0.1: Audio: mp3, 44100 Hz, 2 channels, s16, 128 kb/s


далее попробовал конвертнуть в flv. при конвертации почему-то уехал фпс и стал 1000 к/с.
bitrate 700k

Input #0, flv, from 'video_700k_orig.flv':
  Duration: 00:10:03.27, start: 0.000000, bitrate: 732 kb/s
    Stream #0.0: Video: flv, yuv420p, 1184x1004, 700 kb/s, 25 tbr, 1k tbn, 1k tbc
    Stream #0.1: Audio: mp3, 22050 Hz, 2 channels, s16, 32 kb/s
    filesize        : 85.571.095

bitrate 1400k

Input #0, flv, from 'video_1400k_orig.flv':
  Duration: 00:10:03.27, start: 0.000000, bitrate: 1432 kb/s
    Stream #0.0: Video: flv, yuv420p, 1184x1004, 1400 kb/s, 25 tbr, 1k tbn, 1k tbc
    Stream #0.1: Audio: mp3, 22050 Hz, 2 channels, s16, 32 kb/s
    filesize        : 109.671.653

в общем с flv всё грустно.

Конвертнул тот же исходник в h264. качество стало норм, но поплыл звук, видимо из-за 26кб/сек почему-то установленных ffmpeg.

Seems stream 0 codec frame rate differs from container frame rate: 50.00 (50/1) -> 25.00 (25/1)
Input #0, mov,mp4,m4a,3gp,3g2,mj2, from 'worldoftanks 2011-05-18 09-28_1.avi.mp4':
  Duration: 00:10:03.20, start: 0.000000, bitrate: 549 kb/s
    Stream #0.0(und): Video: h264, yuv420p, 1184x1004 [PAR 1:1 DAR 296:251], 518 kb/s, 25 tbr, 25 tbn, 50 tbc
    Stream #0.1(und): Audio: aac, 22050 Hz, 2 channels, s16, 26 kb/s

Размер файла стал 39 мегабайт.



10 минутное видео в h.264 http://aborche.com/tst/WoT/lj/video1.html
видео отдельным файлом 39мег
в ff плеер правда почему-то не работает :(

В общем gregion + ffmpeg + h264 наше всё.


UPDATE: не пишите в Gregion напрямую в avi. глотает кадры. лучше в его формат, потом конвертация.
Subscribe
  • Post a new comment

    Error

    Comments allowed for members only

    Anonymous comments are disabled in this journal

    default userpic

    Your reply will be screened

    Your IP address will be recorded 

  • 8 comments